This is not a fully automated system. I can handle only up to 10 orders per day. Please try tomorrow.

Vid10 – T-shirts on the Bed – Energetic

$23,90

Promote your t-shirts with affordable, high-quality 3D animation.

Reusable video to captivate current followers and attract new fans on your social networks.

Ideal for YouTube Shorts, Facebook and Instagram Reels, or TikTok videos.

The black ending of the video is there for your message and/or logo.  That way your message at the end of the video doesn’t look ugly cut and pasted and you can reuse the video for different purposes. For example, to introduce new artworks and later for discounts.

Your products are placed in the vertical center as much as possible. It prevents overlays with various icons and text that social networks usually add.
It will also ensure the video can be easily cropped to a square.

This process is not automated, and videos are not generated by AI. So everything can be customized according to your needs.

Media info is in the video description below.

Don’t hesitate to ask info@shubol3d.art

IMPORTANT:
Please read before your first order:

How to order:

Category: Tag:

Description

General
Format : MPEG-4
Format profile : QuickTime
Codec ID : qt 0000.02 (qt )
File size : 13.1 MiB
Duration : 13 s 14 ms
Overall bit rate mode : Variable
Overall bit rate : 8 424 kb/s
Frame rate : 30.000 FPS
Recorded date : 2024/05/16 17:30:08
Writing application : Lavf60.16.100

Video
ID : 1
Format : AVC
Format/Info : Advanced Video Codec
Format profile : High@L5
Format settings : CABAC / 8 Ref Frames
Format settings, CABAC : Yes
Format settings, Reference : 8 frames
Codec ID : avc1
Codec ID/Info : Advanced Video Coding
Duration : 13 s 0 ms
Bit rate : 8 238 kb/s
Width : 1 080 pixels
Height : 1 920 pixels
Display aspect ratio : 0.563
Frame rate mode : Constant
Frame rate : 30.000 FPS
Color space : YUV
Chroma subsampling : 4:2:0
Bit depth : 8 bits
Scan type : Progressive
Bits/(Pixel*Frame) : 0.132
Stream size : 12.8 MiB (98%)
Writing library : x264 core 164
Encoding settings : cabac=1 / ref=8 / deblock=1:0:0 / analyse=0x3:0x133 / me=umh / subme=9 / psy=1 / psy_rd=1.00:0.00 / mixed_ref=1 / me_range=16 / chroma_me=1 / trellis=2 / 8x8dct=1 / cqm=0 / deadzone=21,11 / fast_pskip=1 / chroma_qp_offset=-2 / threads=36 / lookahead_threads=3 / sliced_threads=0 / nr=0 / decimate=1 / interlaced=0 / bluray_compat=0 / constrained_intra=0 / bframes=0 / weightp=2 / keyint=15 / keyint_min=1 / scenecut=40 / intra_refresh=0 / rc_lookahead=15 / rc=crf / mbtree=1 / crf=17.0 / qcomp=0.60 / qpmin=0 / qpmax=69 / qpstep=4 / ip_ratio=1.40 / aq=1:1.00
Codec configuration box : avcC

Audio
ID : 2
Format : AAC LC
Format/Info : Advanced Audio Codec Low Complexity
Codec ID : mp4a-40-2
Duration : 13 s 14 ms
Source duration : 13 s 35 ms
Bit rate mode : Variable
Bit rate : 186 kb/s
Maximum bit rate : 192 kb/s
Channel(s) : 2 channels
Channel layout : L R
Sampling rate : 48.0 kHz
Frame rate : 46.875 FPS (1024 SPF)
Compression mode : Lossy
Stream size : 296 KiB (2%)
Source stream size : 296 KiB (2%)
Default : Yes
Alternate group : 1

 

Reviews

There are no reviews yet.

Only logged in customers who have purchased this product may leave a review.